Free Dowload
 
HomeSearchRegisterLog in

 

 Cars 2 [2011] DVDRip XviD-ZK

Go down 
AuthorMessage
ZeenKy

ZeenKy

Tổng số bài gửi : 164
Join date : 2011-11-05
Age : 27
Đến từ : Janpan

Cars 2 [2011] DVDRip XviD-ZK Empty
PostSubject: Cars 2 [2011] DVDRip XviD-ZK   Cars 2 [2011] DVDRip XviD-ZK EmptyWed Nov 30, 2011 2:13 am

Cars 2 [2011] DVDRip XviD-ZK 665a7aeb87
Cars 2 [2011] DVDRip XviD-ZK
Code:
IMDB:http://www.imdb.com/title/tt1216475/
Code:
Format                          : AVI
Format/Info                      : Audio Video Interleave
File size                        : 700 MiB
Duration                        : 1h 34mn
Overall bit rate                : 1 025 Kbps
Writing library                  : VirtualDub build 32842/release

Video
ID                              : 0
Format                          : MPEG-4 Visual
Format profile                  : Advanced Simple@L5
Format settings, BVOP            : 2
Format settings, QPel            : No
Format settings, GMC            : No warppoints
Format settings, Matrix          : Default (H.263)
Codec ID                        : XVID
Codec ID/Hint                    : XviD
Duration                        : 1h 34mn
Bit rate                        : 887 Kbps
Width                            : 720 pixels
Height                          : 304 pixels
Display aspect ratio            : 2.35:1
Frame rate                      : 25.000 fps
Color space                      : YUV
Chroma subsampling              : 4:2:0
Bit depth                        : 8 bits
Scan type                        : Progressive
Compression mode                : Lossy
Bits/(Pixel*Frame)              : 0.162
Stream size                      : 600 MiB (87%)
Writing library                  : XviD 63

Audio
ID                              : 1
Format                          : AC-3
Format/Info                      : Audio Coding 3
Mode extension                  : CM (complete main)
Codec ID                        : 2000
Duration                        : 1h 34mn
Bit rate mode                    : Constant
Bit rate                        : 128 Kbps
Channel(s)                      : 2 channels
Channel positions                : Front: L R
Sampling rate                    : 48.0 KHz
Bit depth                        : 16 bits
Compression mode                : Lossy
Stream size                      : 86.6 MiB (12%)
Alignment                        : Split accross interleaves
Interleave, duration            : 40 ms (1.00 video frame)
Interleave, preload duration    : 500 ms
Storyline
Star race car Lightning McQueen and his pal Mater head overseas to compete in the World Grand Prix race. But the road to the championship becomes rocky as Mater gets caught up in an intriguing adventure of his own: international espionage.

Cars 2 [2011] DVDRip XviD-ZK Bf42a5feba
Cars 2 [2011] DVDRip XviD-ZK B749c47ba9
Cars 2 [2011] DVDRip XviD-ZK 298db25169
Cars 2 [2011] DVDRip XviD-ZK DOWLOAD
Code:


http://www.filesonic.com/file/4056298725/ZK00023.avi
Back to top Go down
https://down4all.0wn0.com
 
Cars 2 [2011] DVDRip XviD-ZK
Back to top 
Page 1 of 1
 Similar topics
-
» UPDATED[MediaFire]3 Idiots • 2009 • 550MB • X264 DVDRiP • English SubTitles •
» [MF] The Tournament DVDRip 350MB-- Only One will Survive
» [MF] The Little Comedian (2010) DVDRip
» [MF] Stripper Academy--RMVB - DVDrip

Permissions in this forum:You cannot reply to topics in this forum
Down4all :: Downloads :: Movies-
Jump to: