Free Dowload
 
HomeFAQSearchMemberlistUsergroupsRegisterLog in

Share | 
 

 Setup (2011) DVDrip XViD-ZK

View previous topic View next topic Go down 
AuthorMessage
ZeenKy

avatar

Tổng số bài gửi : 164
Join date : 2011-11-05
Age : 25
Đến từ : Janpan

PostSubject: Setup (2011) DVDrip XViD-ZK   Wed Nov 30, 2011 1:34 am


Setup (2011) DVDrip XViD-ZK
Code:
IMDB:http://www.imdb.com/title/tt1748197/
Code:

Format                          : AVI
Format/Info                      : Audio Video Interleave
File size                        : 700 MB
Duration                        : 1h 25mn
Overall bit rate                : 1 147 Kbps
Writing application              : Nandub v1.0rc2
Writing library                  : Nandub build 1853/release

Video
ID                              : 0
Format                          : MPEG-4 Visual
Format profile                  : Advanced Simple@L5
Format settings, BVOP            : 2
Format settings, QPel            : No
Format settings, GMC            : No warppoints
Format settings, Matrix          : Default (H.263)
Codec ID                        : XVID
Codec ID/Hint                    : XviD
Duration                        : 1h 25mn
Bit rate                        : 1 010 Kbps
Width                            : 640 pixels
Height                          : 272 pixels
Display aspect ratio            : 2.35:1
Frame rate                      : 23.976 fps
Color space                      : YUV
Chroma subsampling              : 4:2:0
Bit depth                        : 8 bits
Scan type                        : Progressive
Compression mode                : Lossy
Bits/(Pixel*Frame)              : 0.242
Stream size                      : 616 MiB (88%)
Writing library                  : XviD 1.2.1 (UTC 2008-12-04)

Audio
ID                              : 1
Format                          : MPEG Audio
Format version                  : Version 1
Format profile                  : Layer 3
Mode                            : Joint stereo
Mode extension                  : MS Stereo
Codec ID                        : 55
Codec ID/Hint                    : MP3
Duration                        : 1h 25mn
Bit rate mode                    : Constant
Bit rate                        : 128 Kbps
Channel(s)                      : 2 channels
Sampling rate                    : 48.0 KHz
Compression mode                : Lossy
Stream size                      : 78.1 MiB (11%)
Alignment                        : Split accross interleaves
Interleave, duration            : 42 ms (1.00 video frame)
Interleave, preload duration    : 500 ms
Writing library                  : LAME3.98r
Encoding settings                : -m j -V 4 -q 2 -lowpass 17 -b 128
Storyline
A group of friends plan out a detailed heist that turns deadly when one betrays the other by taking off with the goods. Taking matters into his own hands, Sonny seeks out his revenge teaming up with the most dangerous mob boss in town to get back what is rightfully his. When he finally comes face to face with his longtime friend he will be forced to make a life changing choice.


Code:


http://www.filesonic.com/file/4056299445/ZK00095.avi
Back to top Go down
View user profile http://down4all.0wn0.com
 
Setup (2011) DVDrip XViD-ZK
View previous topic View next topic Back to top 
Page 1 of 1
 Similar topics
-
» 2011 Arrived... HAPPY NEW YEAR to you all!!
» Gov’t procurement e-bidding set Q2 2011
» Mercredi 19/01/2011 : La timidité
» The 2nd january 2011 missile attack!
» New Year's Resolution (Welcome 2011)

Permissions in this forum:You cannot reply to topics in this forum
Down4all :: Downloads :: Movies-
Jump to: