Free Dowload
 
HomeFAQSearchMemberlistUsergroupsRegisterLog in

Share | 
 

 Slices Of Life 2010 DVDRip XviD

View previous topic View next topic Go down 
AuthorMessage
ZeenKy

avatar

Tổng số bài gửi : 164
Join date : 2011-11-05
Age : 25
Đến từ : Janpan

PostSubject: Slices Of Life 2010 DVDRip XviD   Wed Nov 30, 2011 1:33 am


Slices Of Life 2010 DVDRip XviD
Code:
IMDB:http://www.imdb.com/title/tt1584730/
Code:
Audio.....: English
Subtitles.: None
Format : AVI
Format/Info : Audio Video Interleave
File size : 701 MiB
Duration : 1h 47mn
Overall bit rate : 910 Kbps
Writing application : VirtualDubMod 1.5.10.2 (build 2540/release)
Writing library : VirtualDubMod build 2540/release
Video
ID : 0
Format : MPEG-4 Visual
Format profile : Advanced Simple@L5
Format settings, BVOP : Yes
Format settings, QPel : No
Format settings, GMC : No warppoints
Format settings, Matrix : Default (H.263)
Codec ID : XVID
Codec ID/Hint : XviD
Duration : 1h 47mn
Bit rate : 769 Kbps
Width : 608 pixels
Height : 336 pixels
Display aspect ratio : 16:9
Frame rate : 23.976 fps
Color space : YUV
Chroma subsampling : 4:2:0
Bit depth : 8 bits
Scan type : Progressive
Bits/(Pixel*Frame) : 0.157
Stream size : 592 MiB (84%)
Writing library : XviD 63
Audio
ID : 1
Format : MPEG Audio
Format version : Version 1
Format profile : Layer 3
Mode : Joint stereo
Mode extension : MS Stereo
Codec ID : 55
Codec ID/Hint : MP3
Duration : 1h 47mn
Bit rate mode : Variable
Bit rate : 128 Kbps
Channel(s) : 2 channels
Sampling rate : 48.0 KHz
Stream size : 99.2 MiB (14%)
Alignment : Aligned on interleaves
Interleave, duration : 24 ms (0.58 video frame)
Interleave, preload duration : 143 ms
Writing library : LAME3.90.
Encoding settings : -m j -V 4 -q 2 -lowpass 17.6 --abr 128
Storyline
Code:
Sexual Parasites, Disembowelment, Zombies, Serial Killers, Demon Children, Violent Vixens, Rabid Office Workers and Angry Embryos all spring to life from the flesh covered sketch books featured in Anthony G. Sumner's (Gallery of Fear) SLICES OF LIFE. Mira (Kaylee Williams) awakens in front of a seedy roadside motel with amnesia. She searches for clues to her identity in the pages of three bound sketchbooks, in which each book represents a different aspect of everyday life, maybe her life. WORK LIFE A lowly clerk at a nano technology firm unleashes a deadly virus at the office headquarters, giving new meaning to the term corporate zombie. HOME LIFE As local girls begin to disappear, a young pregnant woman is haunted by visions of evil demonic children hell bent on stealing her unborn fetus. SEX LIFE A young brother and sister on the run from a sexually abusive home life, take refuge...




Code:


http://www.filesonic.com/file/4056299465/ZK00097.avi
Back to top Go down
View user profile http://down4all.0wn0.com
 
Slices Of Life 2010 DVDRip XviD
View previous topic View next topic Back to top 
Page 1 of 1
 Similar topics
-
» [MF] The Little Comedian (2010) DVDRip
» Mercredi 10 mars 2010 : l'horoscope
» not past life memories, inherited memories
» THE HEAVENLY LIFE
» Simulated Life

Permissions in this forum:You cannot reply to topics in this forum
Down4all :: Downloads :: Movies-
Jump to: