Free Dowload
 
HomeFAQSearchMemberlistUsergroupsRegisterLog in

Share | 
 

 Stake Land [2010] DVDRip XviD-ZK

View previous topic View next topic Go down 
AuthorMessage
ZeenKy

avatar

Tổng số bài gửi : 164
Join date : 2011-11-05
Age : 25
Đến từ : Janpan

PostSubject: Stake Land [2010] DVDRip XviD-ZK   Wed Nov 30, 2011 1:31 am


Stake Land [2010] DVDRip XviD-ZK
Code:
IMDB:http://www.imdb.com/title/tt1464580/
General
Code:
Complete name: Stake Land [2010] DVDRip XviD-ZK.avi

Format: AVI
Format/Info: Audio Video Interleave
File size: 702 MB
Duration: 1h 38mn
Overall bit rate: 993 Kbps
Writing application: VirtualDubMod 1.5.4.1 (build 2178/release)
Writing library: VirtualDubMod build 2178/release
Video
Code:
ID: 0
Format: MPEG-4 Visual
Format profile: Advanced Simple@L5
Format settings, BVOP: 1
Format settings, QPel: No
Format settings, GMC: No warppoints
Format settings, Matrix: Custom
Codec ID: XVID
Codec ID/Hint: XviD
Duration: 1h 38mn
Bit rate: 867 Kbps
Width: 672 pixels
Height: 288 pixels
Display aspect ratio: 2.35:1
Frame rate: 23.976 fps
Color space: YUV
Chroma subsampling: 4:2:0
Bit depth: 8 bits
Scan type: Progressive
Compression mode: Lossy
Bits/(Pixel*Frame): 0.187
Stream size: 613 MiB (87%)
Writing library: XviD 63
Audio
Code:
ID: 1
Format: MPEG Audio
Format version: Version 1
Format profile: Layer 3
Mode: Joint stereo
Codec ID: 55
Codec ID/Hint: MP3
Duration: 1h 38mn
Bit rate mode: Variable
Bit rate: 114 Kbps
Nominal bit rate: 128 Kbps
Channel(s): 2 channels
Sampling rate: 48.0 KHz
Compression mode: Lossy
Stream size: 80.4 MiB (11%)
Alignment: Aligned on interleaves
Interleave, duration: 24 ms (0.58 video frame)
Interleave, preload duration: 492 ms
Writing library: LAME3.98r
Encoding settings: -m j -V 4 -q 2 -lowpass 17 --abr 128
Storyline

Martin was a normal teenage boy before the country collapsed in an empty pit of economic and political disaster. A vampire epidemic has swept across what is left of the nation's abandoned towns and cities, and it's up to Mister, a death dealing, rogue vampire hunter, to get Martin safely north to Canada, the continent's New Eden.

SCREENSHOT:



Code:


http://www.filesonic.com/file/4056299495/ZK00100.avi
Back to top Go down
View user profile http://down4all.0wn0.com
 
Stake Land [2010] DVDRip XviD-ZK
View previous topic View next topic Back to top 
Page 1 of 1
 Similar topics
-
» [MF] The Little Comedian (2010) DVDRip
» Mercredi 10 mars 2010 : l'horoscope
» UPDATED[MediaFire]3 Idiots • 2009 • 550MB • X264 DVDRiP • English SubTitles •
» [MF] The Tournament DVDRip 350MB-- Only One will Survive
» Land Transport do the work in transit via Iraq

Permissions in this forum:You cannot reply to topics in this forum
Down4all :: Downloads :: Movies-
Jump to: