Free Dowload
 
HomeFAQSearchMemberlistUsergroupsRegisterLog in

Share | 
 

 The Hangover II [2011] DVDRip XviD

View previous topic View next topic Go down 
AuthorMessage
ZeenKy

avatar

Tổng số bài gửi : 164
Join date : 2011-11-05
Age : 25
Đến từ : Janpan

PostSubject: The Hangover II [2011] DVDRip XviD   Wed Nov 30, 2011 1:25 am


The Hangover II 2011 DVDRip XviD
Code:
IMDB:http://www.imdb.com/title/tt1411697/
IMFOMATION:
[code]*******************************
The Hangover II 2011 DVDRip XviD
*******************************

IMDB Rating.......:7.2/10
Video Codec.......: XVID Release Date......:30/06/11
Audio Codec.......:MP3 Theatre Date......:26/05/11
Audio Bitrate.....:128 Runtime.......:1h 38mn
Subtitles.........:NIL Language..........:ENGLISH
Resolution...... 720 x 288

DETAILS:

Video
ID : 0
Format : MPEG-4 Visual
Format profile : Advanced Simple@L5
Format settings, BVOP : 2
Format settings, QPel : No
Format settings, GMC : No warppoints
Format settings, Matrix : Default (MPEG)
Muxing mode : Packed bitstream
Codec ID : XVID
Codec ID/Hint : XviD
Duration : 1h 38mn
Bit rate : 1 649 Kbps
Width : 720 pixels
Height : 288 pixels
Display aspect ratio : 2.500
Frame rate : 23.976 fps
Color space : YUV
Chroma subsampling : 4:2:0
Bit depth : 8 bits
Scan type : Progressive
Compression mode : Lossy
Bits/(Pixel*Frame) : 0.332
Stream size : 1.14 GiB (92%)
Writing library : XviD 1.2.1 (UTC 2008-12-04)

Audio
ID : 1
Format : MPEG Audio
Format version : Version 1
Format profile : Layer 3
Mode : Joint stereo
Mode extension : MS Stereo
Codec ID : 55
Codec ID/Hint : MP3
Duration : 1h 38mn
Bit rate mode : Constant
Bit rate : 128 Kbps
Channel(s) : 2 channels
Sampling rate : 44.1 KHz
Compression mode : Lossy
Stream size : 90.6 MiB (7%)
Alignment : Split accross interleaves
Interleave, duration : 42 ms (1.00 video frame)
Writing library : LAME3.98r





[code]

filesonic.com ZK00112.avi
[/code]
Back to top Go down
View user profile http://down4all.0wn0.com
 
The Hangover II [2011] DVDRip XviD
View previous topic View next topic Back to top 
Page 1 of 1
 Similar topics
-
» 2011 Arrived... HAPPY NEW YEAR to you all!!
» Gov’t procurement e-bidding set Q2 2011
» Mercredi 19/01/2011 : La timidité
» The 2nd january 2011 missile attack!
» New Year's Resolution (Welcome 2011)

Permissions in this forum:You cannot reply to topics in this forum
Down4all :: Downloads :: Movies-
Jump to: