Free Dowload
 
HomeFAQSearchMemberlistUsergroupsRegisterLog in

Share | 
 

 Kung Fu Panda 2 (2011)

View previous topic View next topic Go down 
AuthorMessage
EndyKey

avatar

Tổng số bài gửi : 130
Join date : 2011-11-30

PostSubject: Kung Fu Panda 2 (2011)   Thu Dec 01, 2011 2:24 pm


Kung Fu Panda 2 (2011)
Code:
IMDB:http://www.imdb.com/title/tt1302011/

Code:
  ::::::::::::  EP1C Presents  ::::::::::::


::Video Source:: That Russian Good Good
::Audio Source:: Our Own Good Good

::Encoder::::::: iNK
::Syncer:::::::: iNK

::Language:::::: English

Po joins forces with a group of new kung-fu masters to
take on an old enemy with a deadly new weapon.

::Specs:::::::::

Format/Info                      : Audio Video Interleave
Duration                        : 1h 20mn
Overall bit rate                : 2 421 Kbps
Writing application              : VirtualDubMod 1.5.10.2 (build 2540/release)
Writing library                  : VirtualDubMod build 2540/release

Video
ID                              : 0
Format                          : MPEG-4 Visual
Format profile                  : Advanced Simple@L5
Format settings, BVOP            : Yes
Format settings, QPel            : No
Format settings, GMC            : No warppoints
Format settings, Matrix          : Default (H.263)
Muxing mode                      : Packed bitstream
Codec ID                        : XVID
Codec ID/Hint                    : XviD
Duration                        : 1h 20mn
Bit rate                        : 2 220 Kbps
Width                            : 672 pixels
Height                          : 352 pixels
Display aspect ratio            : 1.909
Frame rate                      : 25.000 fps
Color space                      : YUV
Chroma subsampling              : 4:2:0
Bit depth                        : 8 bits
Scan type                        : Progressive
Bits/(Pixel*Frame)              : 0.375
Stream size                      : 1.26 GiB (92%)
Writing library                  : XviD 58

Audio
ID                              : 1
Format                          : AC-3
Format/Info                      : Audio Coding 3
Mode extension                  : CM (complete main)
Codec ID                        : 2000
Duration                        : 1h 20mn
Bit rate mode                    : Constant
Bit rate                        : 192 Kbps
Channel(s)                      : 2 channels
Channel positions                : Front: L R
Sampling rate                    : 48.0 KHz
Bit depth                        : 16 bits
Stream size                      : 111 MiB (8%)
Alignment                        : Split accross interleaves
Interleave, duration            : 40 ms (1.00 video frame)
Interleave, preload duration    : 500 ms
Storyline
In the Valley of Peace, Po Ping is revelling in his fulfilled dreams as he serves as the fabled Dragon Warrior protecting his home with his heroes now his closest friends. However, Po and company learn that the murderous Lord Shen of Gongman City is threatening the land with a fearsome new weapon that could mean the end of kung fu. They attempt to stop him, but the panda is burdened with crippling memory flashbacks linked to this villain. Now with China in the balance, Po must learn about his past and find true inner peace against all opposition.





http://www.videozer.com/video/tHAfC

Back to top Go down
View user profile
 
Kung Fu Panda 2 (2011)
View previous topic View next topic Back to top 
Page 1 of 1
 Similar topics
-
» Movies One Must See Before They Croak
» 2011 Arrived... HAPPY NEW YEAR to you all!!
» Gov’t procurement e-bidding set Q2 2011
» Mercredi 19/01/2011 : La timidité
» The 2nd january 2011 missile attack!

Permissions in this forum:You cannot reply to topics in this forum
Down4all :: Downloads :: Videos-
Jump to: